[BD]Mayday 五月天 - 任意門Dokodemo Door *RE-LIVE 現場就是起點版*[MP4/64M]



QUOTE:
下载地址:
http://pan.baidu.com/s/1nvJMIO5

提取码:

**** 本内容跟帖回复才可浏览 *****



QUOTE:
General
Format                         : MPEG-4
Format profile                 : Base Media / Version 2
Codec ID                       : mp42 (isom/mp42)
File size                      : 64.3 MiB
Duration                       : 4 min 32 s
Overall bit rate mode          : Variable
Overall bit rate               : 1 984 kb/s
Encoded date                   : UTC 2017-01-06 11:16:12
Tagged date                    : UTC 2017-01-06 11:16:12
gsst                           : 0
gstd                           : 272161

Video
ID                             : 1
Format                         : AVC
Format/Info                    : Advanced Video Codec
Format profile                 : Main@L3.1
Format settings, CABAC         : Yes
Format settings, ReFrames      : 3 frames
Codec ID                       : avc1
Codec ID/Info                  : Advanced Video Coding
Duration                       : 4 min 32 s
Bit rate                       : 1 855 kb/s
Width                          : 1 280 pixels
Height                         : 720 pixels
Display aspect ratio           : 16:9
Frame rate mode                : Constant
Frame rate                     : 29.970 (30000/1001) FPS
Color space                    : YUV
Chroma subsampling             : 4:2:0
Bit depth                      : 8 bits
Scan type                      : Progressive
Bits/(Pixel*Frame)             : 0.067
Stream size                    : 60.1 MiB (93%)
Title                          : ISO Media file produced by Google Inc.
Encoded date                   : UTC 2017-01-06 11:16:12
Tagged date                    : UTC 2017-01-06 11:16:12
Color range                    : Limited
Color primaries                : BT.709
Transfer characteristics       : BT.709
Matrix coefficients            : BT.709

Audio
ID                             : 2
Format                         : AAC
Format/Info                    : Advanced Audio Codec
Format profile                 : LC
Codec ID                       : 40
Duration                       : 4 min 32 s
Bit rate mode                  : Variable
Bit rate                       : 126 kb/s
Channel(s)                     : 2 channels
Channel positions              : Front: L R
Sampling rate                  : 44.1 kHz
Frame rate                     : 43.066 FPS (1024 spf)
Compression mode               : Lossy
Stream size                    : 4.07 MiB (6%)
Title                          : ISO Media file produced by Google Inc.
Encoded date                   : UTC 2017-01-06 11:16:12
Tagged date                    : UTC 2017-01-06 11:16:12

[ 本帖最后由 ‘尛傑’ 于 2017-2-8 23:46 编辑 ]
评论(2)

谢谢 很喜欢五月天~~~~



谢谢....


发表评论
本文章已关闭或您没有权限发表评论。