[BD]Mayday五月天 - 如果我們不曾相遇What If We Had Never Met[MP4/35M]



QUOTE:
下载地址:
http://pan.baidu.com/s/1eSzImBK

提取码:

**** 本内容跟帖回复才可浏览 *****



QUOTE:
General
Format                         : MPEG-4
Format profile                 : Base Media / Version 2
Codec ID                       : mp42 (isom/mp42)
File size                      : 35.9 MiB
Duration                       : 3 min 49 s
Overall bit rate mode          : Variable
Overall bit rate               : 1 312 kb/s
Encoded date                   : UTC 2016-11-22 22:49:55
Tagged date                    : UTC 2016-11-22 22:49:55
gsst                           : 0
gstd                           : 229598

Video
ID                             : 1
Format                         : AVC
Format/Info                    : Advanced Video Codec
Format profile                 : Main@L3.1
Format settings, CABAC         : Yes
Format settings, ReFrames      : 3 frames
Codec ID                       : avc1
Codec ID/Info                  : Advanced Video Coding
Duration                       : 3 min 49 s
Bit rate                       : 1 183 kb/s
Width                          : 1 280 pixels
Height                         : 720 pixels
Display aspect ratio           : 16:9
Frame rate mode                : Constant
Frame rate                     : 29.970 (30000/1001) FPS
Color space                    : YUV
Chroma subsampling             : 4:2:0
Bit depth                      : 8 bits
Scan type                      : Progressive
Bits/(Pixel*Frame)             : 0.043
Stream size                    : 32.4 MiB (90%)
Title                          : ISO Media file produced by Google Inc.
Encoded date                   : UTC 2016-11-22 22:49:55
Tagged date                    : UTC 2016-11-22 22:49:55
Color range                    : Limited
Color primaries                : BT.709
Transfer characteristics       : BT.709
Matrix coefficients            : BT.709

Audio
ID                             : 2
Format                         : AAC
Format/Info                    : Advanced Audio Codec
Format profile                 : LC
Codec ID                       : 40
Duration                       : 3 min 49 s
Bit rate mode                  : Variable
Bit rate                       : 126 kb/s
Channel(s)                     : 2 channels
Channel positions              : Front: L R
Sampling rate                  : 44.1 kHz
Frame rate                     : 43.066 FPS (1024 spf)
Compression mode               : Lossy
Stream size                    : 3.44 MiB (10%)
Title                          : ISO Media file produced by Google Inc.
Encoded date                   : UTC 2016-11-22 22:49:55
Tagged date                    : UTC 2016-11-22 22:49:55

[ 本帖最后由 ‘尛傑’ 于 2017-2-8 23:46 编辑 ]
评论(2)

支持五月天~~ 谢谢楼主



谢谢楼主


发表评论
本文章已关闭或您没有权限发表评论。