[BD]Mayday五月天 - 好好 (想把你寫成一首歌) Song About You[MP4/31M]



QUOTE:
下载地址:
http://pan.baidu.com/s/1cteL7S

提取码:

**** 本内容跟帖回复才可浏览 *****



QUOTE:
General
Format                         : MPEG-4
Format profile                 : Base Media / Version 2
Codec ID                       : mp42 (isom/mp42)
File size                      : 31.6 MiB
Duration                       : 3 min 45 s
Overall bit rate mode          : Variable
Overall bit rate               : 1 177 kb/s
Encoded date                   : UTC 2016-11-24 19:59:48
Tagged date                    : UTC 2016-11-24 19:59:48
gsst                           : 0
gstd                           : 225047

Video
ID                             : 1
Format                         : AVC
Format/Info                    : Advanced Video Codec
Format profile                 : Main@L3.1
Format settings, CABAC         : Yes
Format settings, ReFrames      : 3 frames
Codec ID                       : avc1
Codec ID/Info                  : Advanced Video Coding
Duration                       : 3 min 45 s
Bit rate                       : 1 048 kb/s
Width                          : 1 280 pixels
Height                         : 720 pixels
Display aspect ratio           : 16:9
Frame rate mode                : Constant
Frame rate                     : 24.000 FPS
Color space                    : YUV
Chroma subsampling             : 4:2:0
Bit depth                      : 8 bits
Scan type                      : Progressive
Bits/(Pixel*Frame)             : 0.047
Stream size                    : 28.1 MiB (89%)
Title                          : ISO Media file produced by Google Inc.
Encoded date                   : UTC 2016-11-24 19:59:48
Tagged date                    : UTC 2016-11-24 19:59:48
Color range                    : Limited
Color primaries                : BT.709
Transfer characteristics       : BT.709
Matrix coefficients            : BT.709

Audio
ID                             : 2
Format                         : AAC
Format/Info                    : Advanced Audio Codec
Format profile                 : LC
Codec ID                       : 40
Duration                       : 3 min 45 s
Bit rate mode                  : Variable
Bit rate                       : 126 kb/s
Channel(s)                     : 2 channels
Channel positions              : Front: L R
Sampling rate                  : 44.1 kHz
Frame rate                     : 43.066 FPS (1024 spf)
Compression mode               : Lossy
Stream size                    : 3.37 MiB (11%)
Title                          : ISO Media file produced by Google Inc.
Encoded date                   : UTC 2016-11-24 19:59:48
Tagged date                    : UTC 2016-11-24 19:59:48

评论(2)

两大女神倾情出演 这个要看看了 谢谢楼主



楼主好人一生平安


发表评论
本文章已关闭或您没有权限发表评论。