[BD]Taylor Swift - Super Saturday Night 2017*Part.1*[MP4/675M]



QUOTE:
Taylor Swift今年#超级碗#预热演唱会Super Saturday Night第一部分官方视频出炉!表演了《New Romantics》《Blank Space》和《I Knew You Were Trouble》



QUOTE:
下载地址:
http://pan.baidu.com/s/1kVlw5ZT


提取码:

**** 本内容跟帖回复才可浏览 *****



QUOTE:
General
Complete name                  : E:\BD\(至爱音乐论坛)Taylor Swift Super Saturday Night 2017.MP4
Format                         : MPEG-4
Format profile                 : Base Media
Codec ID                       : isom (isom/avc1/mp42)
File size                      : 675 MiB
Duration                       : 16 min 11 s
Overall bit rate mode          : Variable
Overall bit rate               : 5 829 kb/s
Encoded date                   : UTC 2017-03-07 16:43:53
Tagged date                    : UTC 2017-03-07 16:43:53

Video
ID                             : 1
Format                         : AVC
Format/Info                    : Advanced Video Codec
Format profile                 : High@L4
Format settings, CABAC         : Yes
Format settings, ReFrames      : 3 frames
Format settings, GOP           : M=1, N=60
Codec ID                       : avc1
Codec ID/Info                  : Advanced Video Coding
Duration                       : 16 min 11 s
Bit rate                       : 5 636 kb/s
Maximum bit rate               : 28.1 Mb/s
Width                          : 1 920 pixels
Height                         : 1 080 pixels
Display aspect ratio           : 16:9
Frame rate mode                : Constant
Frame rate                     : 23.976 (24000/1001) FPS
Color space                    : YUV
Chroma subsampling             : 4:2:0
Bit depth                      : 8 bits
Scan type                      : Progressive
Bits/(Pixel*Frame)             : 0.113
Stream size                    : 653 MiB (97%)
Writing library                : Zencoder Video Encoding System
Encoded date                   : UTC 2017-03-07 16:41:54
Tagged date                    : UTC 2017-03-07 16:43:53

Audio
ID                             : 2
Format                         : AAC
Format/Info                    : Advanced Audio Codec
Format profile                 : LC
Codec ID                       : 40
Duration                       : 16 min 11 s
Bit rate mode                  : Variable
Bit rate                       : 192 kb/s
Maximum bit rate               : 202 kb/s
Channel(s)                     : 2 channels
Channel positions              : Front: L R
Sampling rate                  : 48.0 kHz
Frame rate                     : 46.875 FPS (1024 spf)
Compression mode               : Lossy
Stream size                    : 22.1 MiB (3%)
Encoded date                   : UTC 2017-03-07 16:41:54
Tagged date                    : UTC 2017-03-07 16:43:53

评论(11)

回复 #1 ‘尛傑’ 的帖子




多谢了 看一下



thank you very much



看看哈!不知道其它part在哪啊



thank you very much!



Thanks for sharing!





QUOTE:
原帖由 eagle2371 于 2017-3-31 10:50 发表
看看哈!不知道其它part在哪啊

其实都有,只是最近很忙,有空我会陆续发布。见谅。







感謝無私地分享!!!



谢谢分享



回复看一下


发表评论
本文章已关闭或您没有权限发表评论。