[BD]周杰伦 - 不愛我就拉倒[MP4/110M]



QUOTE:
下載地址:
https://pan.baidu.com/s/14FeiP-iivKOd5rx4wY5f-w


提取碼:


**** 本内容跟帖回复才可浏览 *****



QUOTE:
General
Format                         : MPEG-4
Format profile                 : Base Media
Codec ID                       : isom (isom)
File size                      : 111 MiB
Duration                       : 4 min 10 s
Overall bit rate mode          : Variable
Overall bit rate               : 3 707 kb/s
Encoded date                   : UTC 2018-05-14 16:03:57
Tagged date                    : UTC 2018-05-14 16:03:57
Writing application            : My MP4Box GUI 0.6.0.6 <http://my-mp4box-gui.zymichost.com>

Video
ID                             : 1
Format                         : AVC
Format/Info                    : Advanced Video Codec
Format profile                 : High@L4
Format settings, CABAC         : Yes
Format settings, ReFrames      : 2 frames
Codec ID                       : avc1
Codec ID/Info                  : Advanced Video Coding
Duration                       : 4 min 10 s
Bit rate                       : 3 577 kb/s
Maximum bit rate               : 6 792 kb/s
Width                          : 1 920 pixels
Height                         : 1 080 pixels
Display aspect ratio           : 16:9
Frame rate mode                : Constant
Frame rate                     : 24.000 FPS
Color space                    : YUV
Chroma subsampling             : 4:2:0
Bit depth                      : 8 bits
Scan type                      : Progressive
Bits/(Pixel*Frame)             : 0.072
Stream size                    : 107 MiB (96%)
Encoded date                   : UTC 2018-05-14 05:18:08
Tagged date                    : UTC 2018-05-14 16:03:59
Color range                    : Limited
Color primaries                : BT.709
Transfer characteristics       : BT.709
Matrix coefficients            : BT.709

Audio
ID                             : 2
Format                         : AAC
Format/Info                    : Advanced Audio Codec
Format profile                 : LC
Codec ID                       : 40
Duration                       : 4 min 10 s
Bit rate mode                  : Variable
Bit rate                       : 128 kb/s
Maximum bit rate               : 136 kb/s
Channel(s)                     : 2 channels
Channel positions              : Front: L R
Sampling rate                  : 44.1 kHz
Frame rate                     : 43.066 FPS (1024 spf)
Compression mode               : Lossy
Stream size                    : 3.82 MiB (3%)
Language                       : English
Encoded date                   : UTC 2018-05-14 16:03:58
Tagged date                    : UTC 2018-05-14 16:03:59

评论(6)

最近一波主打啊,厉害



好好听



新歌
赶快听听看。。。



感谢分享~



感谢,希望1080P



感谢分享!!!


发表评论
本文章已关闭或您没有权限发表评论。