标题: [华语] [BD]梁静茹 - 温柔*女也Herstory with Mayday*[MP4/100M]
  本主题被作者加入到个人文集中  
‘尛傑’ (肥旺…)


独家资源



至爱音乐荣誉勋章   至爱音乐版主  
UID 59570
精华 11
积分 2391671992
帖子 2077
音乐魅力 244186257 点
现金 2147483647 音乐币
阅读权限
注册 2006-8-28
状态 在线
发表于 2015-7-7 01:10  资料  个人空间  短消息  加为好友  QQ
[BD]梁静茹 - 温柔*女也Herstory with Mayday*[MP4/100M]



QUOTE:
下载地址:
http://pan.baidu.com/s/1o6MLuKM

提取码:

**** 本内容跟帖回复才可浏览 *****



QUOTE:



QUOTE:
General
Format                         : MPEG-4
Format profile                 : Base Media
Codec ID                       : isom
File size                      : 100 MiB
Duration                       : 5mn 3s
Overall bit rate mode          : Variable
Overall bit rate               : 2 777 Kbps
Encoded date                   : UTC 2015-06-28 14:40:10
Tagged date                    : UTC 2015-06-28 14:40:10

Video
ID                             : 1
Format                         : AVC
Format/Info                    : Advanced Video Codec
Format profile                 : High@L4.0
Format settings, CABAC         : Yes
Format settings, ReFrames      : 2 frames
Codec ID                       : avc1
Codec ID/Info                  : Advanced Video Coding
Duration                       : 5mn 3s
Bit rate                       : 2 648 Kbps
Width                          : 1 920 pixels
Height                         : 1 080 pixels
Display aspect ratio           : 16:9
Frame rate mode                : Constant
Frame rate                     : 29.970 fps
Color space                    : YUV
Chroma subsampling             : 4:2:0
Bit depth                      : 8 bits
Scan type                      : Progressive
Bits/(Pixel*Frame)             : 0.043
Stream size                    : 95.8 MiB (95%)
Encoded date                   : UTC 2015-06-28 14:40:10
Tagged date                    : UTC 2015-06-28 14:40:10

Audio
ID                             : 2
Format                         : AAC
Format/Info                    : Advanced Audio Codec
Format profile                 : LC
Codec ID                       : 40
Duration                       : 5mn 3s
Bit rate mode                  : Variable
Bit rate                       : 126 Kbps
Channel(s)                     : 2 channels
Channel positions              : Front: L R
Sampling rate                  : 44.1 KHz
Compression mode               : Lossy
Stream size                    : 4.54 MiB (5%)
Encoded date                   : UTC 2015-06-28 14:38:25
Tagged date                    : UTC 2015-06-28 14:38:25


分享到:     分享到新浪微博 新浪微博    分享到QQ空间QQ空间    分享到腾讯微博腾讯微博



至爱音乐论坛声明:
◎本站音乐仅供试听,请下载后在24小时内删除,请支持你喜欢的歌手,购买正版CD。
◎本站音乐皆从网上搜集转载,版权归唱片公司和歌手所有,如侵犯您的权益,请通知我们,我们将及时删除。





顶部
艾奥里亚





UID 90443
精华 0
积分 5145
帖子 1134
音乐魅力 3813 点
现金 198 音乐币
阅读权限
注册 2006-11-25
来自 青岛
状态 离线
发表于 2015-8-1 22:33  资料  个人空间  短消息  加为好友 
专辑里这首最棒

顶部
sam54





UID 148749
精华 0
积分 348
帖子 109
音乐魅力 229 点
现金 10 音乐币
阅读权限
注册 2014-12-1
状态 离线
发表于 2015-8-3 12:02  资料  个人空间  短消息  加为好友 
thanks a lot

顶部
godofwing





UID 125078
精华 0
积分 1654
帖子 16
音乐魅力 1340 点
现金 298 音乐币
阅读权限
注册 2008-5-2
状态 离线
发表于 2015-8-10 09:10  资料  个人空间  短消息  加为好友 
静茹版,看看也好

顶部
xu86





UID 126636
精华 0
积分 1210
帖子 4
音乐魅力 908 点
现金 298 音乐币
阅读权限
注册 2008-9-1
状态 离线
发表于 2015-11-3 21:31  资料  个人空间  短消息  加为好友 
谢谢楼主分享~等了120秒。。

顶部
liuxiao30





UID 115905
精华 0
积分 6807
帖子 298
音乐魅力 5515 点
现金 994 音乐币
阅读权限
注册 2007-8-3
来自 四川
状态 离线
发表于 2018-7-21 00:11  资料  个人空间  短消息  加为好友 
谢谢楼主,下课了。





顶部
Anty123





UID 3115
精华 0
积分 3036
帖子 1
音乐魅力 2259 点
现金 776 音乐币
阅读权限
注册 2005-12-31
状态 离线
发表于 2019-5-16 13:17  资料  个人空间  短消息  加为好友 
有专辑的介绍就好了,辛苦

顶部
 



当前时区 GMT+8, 现在时间是 2019-9-17 01:04
本论坛支付平台由支付宝提供
携手打造安全诚信的交易社区
Processed in 0.022691 second(s), 10 queries , Gzip enabled

清除 Cookies - 联系我们 - 至爱音乐论坛 - Archiver - WAP