标题: [欧美] [BD]Wiz Khalifa feat. Charlie Puth - See You Again[MP4/150M]
  本主题被作者加入到个人文集中  
‘尛傑’ (肥旺…)
音乐掌门人
Rank: 14Rank: 14Rank: 14Rank: 14
独家资源


至爱音乐荣誉勋章   至爱音乐版主  
UID 59570
精华 20
积分 2391672001
帖子 2077
音乐魅力 244186257 点
现金 2147483647 音乐币
阅读权限 180
注册 2006-8-28
状态 离线
发表于 2015-4-14 02:20  资料  个人空间  短消息  加为好友  QQ
[BD]Wiz Khalifa feat. Charlie Puth - See You Again[MP4/150M]



QUOTE:
下载地址:

http://pan.baidu.com/s/1sjt4BHN

提取码:

**** 本内容跟帖回复才可浏览 *****



QUOTE:
General
Format                         : MPEG-4
Format profile                 : Base Media
Codec ID                       : isom
File size                      : 151 MiB
Duration                       : 4mn 0s
Overall bit rate mode          : Variable
Overall bit rate               : 5 274 Kbps
Encoded date                   : UTC 2015-04-10 21:39:18
Tagged date                    : UTC 2015-04-10 21:39:18

Video
ID                             : 1
Format                         : AVC
Format/Info                    : Advanced Video Codec
Format profile                 : Main@L4.0
Format settings, CABAC         : Yes
Format settings, ReFrames      : 3 frames
Codec ID                       : avc1
Codec ID/Info                  : Advanced Video Coding
Duration                       : 4mn 0s
Bit rate                       : 5 089 Kbps
Maximum bit rate               : 6 274 Kbps
Width                          : 1 920 pixels
Height                         : 796 pixels
Display aspect ratio           : 2.40:1
Frame rate mode                : Constant
Frame rate                     : 23.976 fps
Color space                    : YUV
Chroma subsampling             : 4:2:0
Bit depth                      : 8 bits
Scan type                      : Progressive
Bits/(Pixel*Frame)             : 0.139
Stream size                    : 146 MiB (96%)
Writing library                : Zencoder Video Encoding System
Encoded date                   : UTC 2015-04-10 21:37:35
Tagged date                    : UTC 2015-04-10 21:39:18

Audio
ID                             : 2
Format                         : AAC
Format/Info                    : Advanced Audio Codec
Format profile                 : LC
Codec ID                       : 40
Duration                       : 4mn 0s
Bit rate mode                  : Variable
Bit rate                       : 184 Kbps
Maximum bit rate               : 217 Kbps
Channel(s)                     : 2 channels
Channel positions              : Front: L R
Sampling rate                  : 48.0 KHz
Compression mode               : Lossy
Stream size                    : 5.26 MiB (3%)
Encoded date                   : UTC 2015-04-10 21:39:18
Tagged date                    : UTC 2015-04-10 21:39:18






至爱音乐论坛声明:
◎本站音乐仅供试听,请下载后在24小时内删除,请支持你喜欢的歌手,购买正版CD。
◎本站音乐皆从网上搜集转载,版权归唱片公司和歌手所有,如侵犯您的权益,请通知我们,我们将及时删除。





顶部
MICHAEL
音乐狂热份子
Rank: 4



UID 142500
精华 0
积分 2100
帖子 976
音乐魅力 1104 点
现金 20 音乐币
阅读权限 50
注册 2011-4-1
状态 离线
发表于 2015-4-14 19:56  资料  个人空间  短消息  加为好友 
回复 #1 ‘尛傑’ 的帖子

多謝分享,好東西,收下。

顶部
xoxiaoyuer (AKA BigRoy)
音乐制作人
Rank: 6Rank: 6
雪雪的胖胖


UID 144276
精华 0
积分 5821
帖子 319
音乐魅力 5479 点
现金 23 音乐币
阅读权限 70
注册 2011-10-3
来自 青州
状态 离线
发表于 2015-4-14 21:56  资料  个人空间  短消息  加为好友  QQ
for paul!!!!支持了 thx 4 sharing

顶部
Lil'Jin
音乐制作人
Rank: 6Rank: 6


UID 84898
精华 0
积分 4598
帖子 612
音乐魅力 3068 点
现金 918 音乐币
阅读权限 70
注册 2006-11-10
来自 上海
状态 离线
发表于 2015-4-15 00:53  资料  个人空间  短消息  加为好友 
RIP Paul...

顶部
Edjo (ホ)
音乐狂热份子
Rank: 4


UID 112384
精华 0
积分 2406
帖子 54
音乐魅力 1829 点
现金 523 音乐币
阅读权限 50
注册 2007-6-1
状态 离线
发表于 2015-4-15 15:51  资料  个人空间  短消息  加为好友 
怀念保罗~

顶部
nanronan98
音乐狂热份子
Rank: 4



UID 135576
精华 0
积分 3115
帖子 1276
音乐魅力 1691 点
现金 148 音乐币
阅读权限 50
注册 2009-12-1
状态 离线
发表于 2015-4-15 18:28  资料  个人空间  短消息  加为好友 
8 liuxia

顶部
鸡仔 (鸡仔)
音乐制作人
Rank: 6Rank: 6


UID 79717
精华 0
积分 4024
帖子 276
音乐魅力 2826 点
现金 922 音乐币
阅读权限 70
注册 2006-10-29
来自 广东江门
状态 离线
发表于 2015-4-17 00:02  资料  个人空间  短消息  加为好友 
纪念保罗沃克!!!!顶!!!!





谈恋爱是令人烦恼的,但没有恋爱,人生是没意义的!
顶部
world21
音乐狂热份子
Rank: 4


UID 23032
精华 0
积分 3530
帖子 73
音乐魅力 2551 点
现金 906 音乐币
阅读权限 50
注册 2006-5-1
状态 离线
发表于 2015-4-20 01:51  资料  个人空间  短消息  加为好友 
感谢楼主分享~





顶部
Stone0606 (石頭)
至爱音乐VIP
Rank: 10Rank: 10Rank: 10
故事的最後 石頭變成王子


荣誉勋章   至爱音乐荣誉勋章   至爱音乐VIP   至爱音乐荣誉会员  
UID 104914
精华 1
积分 6037
帖子 702
音乐魅力 3559 点
现金 1775 音乐币
阅读权限 110
注册 2007-1-14
状态 离线
发表于 2015-4-20 19:14  资料  个人空间  短消息  加为好友  QQ
to Paul

顶部
A.Nukki
音乐狂热份子
Rank: 4


UID 117265
精华 0
积分 3540
帖子 887
音乐魅力 2170 点
现金 483 音乐币
阅读权限 50
注册 2007-9-2
状态 离线
发表于 2015-4-23 11:59  资料  个人空间  短消息  加为好友 
怀念保罗~
怀念保罗~





$,$$$,$$$,$$$,$$$,$$$,$$$
顶部
star2seven
音乐狂热份子
Rank: 4



UID 138370
精华 0
积分 2053
帖子 703
音乐魅力 1327 点
现金 23 音乐币
阅读权限 50
注册 2010-8-1
状态 离线
发表于 2015-4-27 19:46  资料  个人空间  短消息  加为好友 
这首歌曲真的是很好听呢~~

顶部
english
音乐热爱份子
Rank: 3Rank: 3



UID 67284
精华 0
积分 890
帖子 101
音乐魅力 769 点
现金 20 音乐币
阅读权限 30
注册 2006-9-18
状态 离线
发表于 2015-5-1 10:58  资料  个人空间  短消息  加为好友 
顶  那么好听一首歌曲 ~~~

顶部
wq66 (wong66)
荣誉音乐师
Rank: 10Rank: 10Rank: 10



荣誉勋章   至爱音乐荣誉勋章   至爱音乐荣誉会员  
UID 112177
精华 0
积分 2527
帖子 129
音乐魅力 1882 点
现金 516 音乐币
阅读权限 100
注册 2007-6-1
来自 yn.yuxi
状态 离线
发表于 2015-5-11 10:44  资料  个人空间  短消息  加为好友  QQ
回复 #1 ‘尛傑’ 的帖子

好,很好听的歌。

顶部
feqzt
音乐热爱份子
Rank: 3Rank: 3


UID 137440
精华 0
积分 1098
帖子 130
音乐魅力 658 点
现金 310 音乐币
阅读权限 30
注册 2010-5-3
状态 离线
发表于 2015-5-11 18:00  资料  个人空间  短消息  加为好友 
来收片尾曲了

顶部
wannengyaoshi
音乐热爱份子
Rank: 3Rank: 3


UID 126801
精华 0
积分 1487
帖子 133
音乐魅力 1051 点
现金 303 音乐币
阅读权限 30
注册 2008-9-2
状态 离线
发表于 2015-5-11 21:49  资料  个人空间  短消息  加为好友 
怀念保罗~多謝分享

顶部
nigel
音乐热爱份子
Rank: 3Rank: 3


UID 126438
精华 0
积分 1706
帖子 88
音乐魅力 1319 点
现金 299 音乐币
阅读权限 30
注册 2008-7-1
状态 离线
发表于 2015-5-16 12:58  资料  个人空间  主页 短消息  加为好友 
多謝分享,好東西,收下

顶部
boyxiaolei (走出忧郁)
音乐狂热份子
Rank: 4


UID 119742
精华 0
积分 2154
帖子 39
音乐魅力 1648 点
现金 467 音乐币
阅读权限 50
注册 2007-11-15
来自 扬州
状态 离线

用支付宝求购
发表于 2015-5-17 13:57  资料  个人空间  短消息  加为好友  QQ
这个我在百度上搜了好久。





Let our hearts smile everyday !!!
顶部
huo1234tian
音乐狂热份子
Rank: 4



UID 33700
精华 0
积分 3138
帖子 39
音乐魅力 2381 点
现金 718 音乐币
阅读权限 50
注册 2006-6-9
状态 离线
发表于 2015-5-24 13:28  资料  个人空间  短消息  加为好友 
这个必须要下啊,谢谢分享

顶部
chenwei198199
音乐狂热份子
Rank: 4



UID 7980
精华 0
积分 3012
帖子 1
音乐魅力 2305 点
现金 706 音乐币
阅读权限 50
注册 2006-2-18
状态 离线
发表于 2015-6-4 11:29  资料  个人空间  短消息  加为好友 
喜欢这首歌,资源不好找啊,感谢

顶部
Vinson
音乐新人
Rank: 1



UID 148436
精华 0
积分 152
帖子 11
音乐魅力 131 点
现金 10 音乐币
阅读权限 10
注册 2014-5-1
状态 离线
发表于 2015-6-18 16:21  资料  个人空间  短消息  加为好友 
rest in peace PAUL!

顶部
 



当前时区 GMT+8, 现在时间是 2020-10-27 23:24
本论坛支付平台由支付宝提供
携手打造安全诚信的交易社区
Processed in 0.017587 second(s), 10 queries , Gzip enabled

清除 Cookies - 联系我们 - 至爱音乐论坛 - Archiver - WAP