标题: [华语] [BD]邓紫棋 - 于是[MP4/116M]
  本主题被作者加入到个人文集中  
‘尛傑’ (肥旺…)
音乐掌门人
Rank: 14Rank: 14Rank: 14Rank: 14
独家资源


至爱音乐荣誉勋章   至爱音乐版主  
UID 59570
精华 20
积分 2391672001
帖子 2077
音乐魅力 244186257 点
现金 2147483647 音乐币
阅读权限 180
注册 2006-8-28
状态 离线
发表于 2015-11-3 02:36  资料  个人空间  短消息  加为好友  QQ
[BD]邓紫棋 - 于是[MP4/116M]



QUOTE:
下载地址:

http://pan.baidu.com/s/1gd6SWON
提取码:


**** 本内容跟帖回复才可浏览 *****



QUOTE:
General
Format                         : MPEG-4
Format profile                 : Base Media
Codec ID                       : isom
File size                      : 116 MiB
Duration                       : 4mn 4s
Overall bit rate               : 3 985 Kbps
Writing application            : Lavf57.3.101

Video
ID                             : 1
Format                         : AVC
Format/Info                    : Advanced Video Codec
Format profile                 : High@L4
Format settings, CABAC         : Yes
Format settings, ReFrames      : 2 frames
Codec ID                       : avc1
Codec ID/Info                  : Advanced Video Coding
Duration                       : 4mn 4s
Bit rate                       : 3 854 Kbps
Width                          : 1 920 pixels
Height                         : 1 080 pixels
Display aspect ratio           : 16:9
Frame rate mode                : Constant
Frame rate                     : 24.000 fps
Color space                    : YUV
Chroma subsampling             : 4:2:0
Bit depth                      : 8 bits
Scan type                      : Progressive
Bits/(Pixel*Frame)             : 0.077
Stream size                    : 112 MiB (97%)

Audio
ID                             : 2
Format                         : AAC
Format/Info                    : Advanced Audio Codec
Format profile                 : LC
Codec ID                       : 40
Duration                       : 4mn 4s
Bit rate mode                  : Constant
Bit rate                       : 126 Kbps
Channel(s)                     : 2 channels
Channel positions              : Front: L R
Sampling rate                  : 44.1 KHz
Compression mode               : Lossy
Stream size                    : 3.66 MiB (3%)

[ 本帖最后由 ‘尛傑’ 于 2015-11-3 03:06 编辑 ]





至爱音乐论坛声明:
◎本站音乐仅供试听,请下载后在24小时内删除,请支持你喜欢的歌手,购买正版CD。
◎本站音乐皆从网上搜集转载,版权归唱片公司和歌手所有,如侵犯您的权益,请通知我们,我们将及时删除。





顶部
andycoolgirl (圈圈 さま)
音乐制作人
Rank: 6Rank: 6
陆地上行走的鱼


UID 118876
精华 0
积分 5477
帖子 1175
音乐魅力 3301 点
现金 1001 音乐币
阅读权限 70
注册 2007-10-15
来自 ҹ混沌都市
状态 离线
发表于 2015-11-13 10:45  资料  个人空间  短消息  加为好友 
感谢分享好音乐





music is my life~`.
顶部
Lil'Jin
音乐制作人
Rank: 6Rank: 6


UID 84898
精华 0
积分 4598
帖子 612
音乐魅力 3068 点
现金 918 音乐币
阅读权限 70
注册 2006-11-10
来自 上海
状态 离线
发表于 2015-11-21 22:22  资料  个人空间  短消息  加为好友 
THANKS SO MUCH...

顶部
居里大人
荣誉音乐师
Rank: 10Rank: 10Rank: 10


荣誉勋章   至爱音乐荣誉勋章   至爱音乐荣誉会员  
UID 7370
精华 0
积分 4329
帖子 399
音乐魅力 3004 点
现金 926 音乐币
阅读权限 100
注册 2006-2-14
状态 离线
发表于 2016-2-24 19:45  资料  个人空间  短消息  加为好友 
又来了

继续支持中,感谢。。由衷的感谢。

顶部
林军
音乐爱好者
Rank: 2



UID 135537
精华 0
积分 748
帖子 23
音乐魅力 527 点
现金 198 音乐币
阅读权限 30
注册 2009-12-1
状态 离线
发表于 2020-6-9 14:30  资料  个人空间  短消息  加为好友 
感谢楼主

顶部
 



当前时区 GMT+8, 现在时间是 2020-10-27 23:39
本论坛支付平台由支付宝提供
携手打造安全诚信的交易社区
Processed in 0.023353 second(s), 10 queries , Gzip enabled

清除 Cookies - 联系我们 - 至爱音乐论坛 - Archiver - WAP