标题: [华语] [BD]S.H.E - 你曾是少年"《少年班》电影主题曲"[MP4/104M]
  本主题被作者加入到个人文集中  
‘尛傑’ (肥旺…)
音乐掌门人
Rank: 14Rank: 14Rank: 14Rank: 14
独家资源


至爱音乐荣誉勋章   至爱音乐版主  
UID 59570
精华 20
积分 2391672018
帖子 2083
音乐魅力 244186268 点
现金 2147483647 音乐币
阅读权限 180
注册 2006-8-28
状态 离线
发表于 2015-6-8 02:27  资料  个人空间  短消息  加为好友  QQ
[BD]S.H.E - 你曾是少年"《少年班》电影主题曲"[MP4/104M]



QUOTE:
下载地址:

http://pan.baidu.com/s/1i3AItVJ
提取码:

**** 本内容跟帖回复才可浏览 *****



QUOTE:
General
Format                         : MPEG-4
Format profile                 : Base Media
Codec ID                       : isom
File size                      : 105 MiB
Duration                       : 4mn 43s
Overall bit rate mode          : Variable
Overall bit rate               : 3 097 Kbps
Encoded date                   : UTC 2015-05-22 07:57:37
Tagged date                    : UTC 2015-05-22 07:57:37

Video
ID                             : 1
Format                         : AVC
Format/Info                    : Advanced Video Codec
Format profile                 : High@L4.0
Format settings, CABAC         : Yes
Format settings, ReFrames      : 2 frames
Codec ID                       : avc1
Codec ID/Info                  : Advanced Video Coding
Duration                       : 4mn 43s
Bit rate                       : 2 968 Kbps
Width                          : 1 920 pixels
Height                         : 1 080 pixels
Display aspect ratio           : 16:9
Frame rate mode                : Variable
Frame rate                     : 23.976 fps
Minimum frame rate             : 23.974 fps
Maximum frame rate             : 23.981 fps
Color space                    : YUV
Chroma subsampling             : 4:2:0
Bit depth                      : 8 bits
Scan type                      : Progressive
Bits/(Pixel*Frame)             : 0.060
Stream size                    : 100 MiB (96%)
Encoded date                   : UTC 2015-05-22 07:57:37
Tagged date                    : UTC 2015-05-22 07:57:37

Audio
ID                             : 2
Format                         : AAC
Format/Info                    : Advanced Audio Codec
Format profile                 : LC
Codec ID                       : 40
Duration                       : 4mn 43s
Bit rate mode                  : Variable
Bit rate                       : 126 Kbps
Channel(s)                     : 2 channels
Channel positions              : Front: L R
Sampling rate                  : 44.1 KHz
Compression mode               : Lossy
Stream size                    : 4.25 MiB (4%)
Encoded date                   : UTC 2015-05-22 07:56:06
Tagged date                    : UTC 2015-05-22 07:56:06


分享到:     分享到新浪微博 新浪微博    分享到QQ空间QQ空间    分享到腾讯微博腾讯微博



至爱音乐论坛声明:
◎本站音乐仅供试听,请下载后在24小时内删除,请支持你喜欢的歌手,购买正版CD。
◎本站音乐皆从网上搜集转载,版权归唱片公司和歌手所有,如侵犯您的权益,请通知我们,我们将及时删除。





顶部
xoxiaoyuer (AKA BigRoy)
音乐制作人
Rank: 6Rank: 6
雪雪的胖胖


UID 144276
精华 0
积分 5821
帖子 319
音乐魅力 5479 点
现金 23 音乐币
阅读权限 70
注册 2011-10-3
来自 青州
状态 离线
发表于 2015-6-8 10:27  资料  个人空间  短消息  加为好友  QQ
收了 谢谢楼主 o(∩_∩)o 哈哈

顶部
Lil'Jin
音乐制作人
Rank: 6Rank: 6


UID 84898
精华 0
积分 4598
帖子 612
音乐魅力 3068 点
现金 918 音乐币
阅读权限 70
注册 2006-11-10
来自 上海
状态 离线
发表于 2015-6-9 00:10  资料  个人空间  短消息  加为好友 
come back with a good single...

顶部
bluelarry
音乐狂热份子
Rank: 4



UID 45410
精华 0
积分 3397
帖子 217
音乐魅力 2494 点
现金 686 音乐币
阅读权限 50
注册 2006-7-13
状态 离线
发表于 2015-6-11 13:49  资料  个人空间  短消息  加为好友 
谢谢分享!!!!

顶部
陶喆主义
荣誉音乐师
Rank: 10Rank: 10Rank: 10


荣誉勋章   至爱音乐荣誉勋章   至爱音乐荣誉会员  
UID 13500
精华 0
积分 8646
帖子 1665
音乐魅力 5556 点
现金 1425 音乐币
阅读权限 100
注册 2006-3-19
状态 离线
发表于 2015-6-19 16:31  资料  个人空间  短消息  加为好友 
thanks ...

顶部
Richie_R
荣誉音乐师
Rank: 10Rank: 10Rank: 10



荣誉勋章   至爱音乐荣誉勋章   至爱音乐荣誉会员  
UID 119316
精华 0
积分 2355
帖子 316
音乐魅力 1683 点
现金 356 音乐币
阅读权限 100
注册 2007-11-1
来自 广州
状态 离线
发表于 2015-6-28 18:50  资料  个人空间  短消息  加为好友 
收了 谢谢楼主 o(∩_∩)o

顶部
lcmygone
音乐狂热份子
Rank: 4


UID 117421
精华 0
积分 2592
帖子 27
音乐魅力 1962 点
现金 603 音乐币
阅读权限 50
注册 2007-9-15
状态 离线
发表于 2015-9-4 21:09  资料  个人空间  短消息  加为好友 
哈哈哈哈





有心能知,有情能爱,有缘能聚,有梦能圆。
顶部
gxzgxzgxz
音乐热爱份子
Rank: 3Rank: 3



UID 130462
精华 0
积分 1540
帖子 168
音乐魅力 1074 点
现金 298 音乐币
阅读权限 30
注册 2009-1-15
状态 离线
发表于 2015-11-23 11:22  资料  个人空间  短消息  加为好友 
这个也太好看了,就是我要找的

顶部
sunrising (sunrising)
音乐狂热份子
Rank: 4



UID 105885
精华 0
积分 2845
帖子 12
音乐魅力 2167 点
现金 666 音乐币
阅读权限 50
注册 2007-2-15
状态 离线
发表于 2015-12-10 16:45  资料  个人空间  短消息  加为好友  QQ
想起刚刚认识SHE的时候   我也曾是少年

顶部
lijiajia001
音乐狂热份子
Rank: 4



UID 113153
精华 0
积分 2303
帖子 12
音乐魅力 1775 点
现金 516 音乐币
阅读权限 50
注册 2007-6-15
来自 山西
状态 离线
发表于 2016-5-6 13:31  资料  个人空间  短消息  加为好友 
谢谢分享

顶部
铁杆乐迷
音乐狂热份子
Rank: 4



UID 113135
精华 0
积分 2221
帖子 56
音乐魅力 1699 点
现金 466 音乐币
阅读权限 50
注册 2007-6-15
状态 离线
发表于 2016-10-8 21:45  资料  个人空间  短消息  加为好友 
电影拍的真心不错

顶部
treefree
音乐狂热份子
Rank: 4



UID 108971
精华 0
积分 2210
帖子 94
音乐魅力 1401 点
现金 715 音乐币
阅读权限 50
注册 2007-4-1
状态 离线
发表于 2017-8-20 13:53  资料  个人空间  短消息  加为好友 
主题曲好好听,谢谢楼主

顶部
caowei_s
音乐狂热份子
Rank: 4



UID 64690
精华 0
积分 2599
帖子 23
音乐魅力 2010 点
现金 566 音乐币
阅读权限 50
注册 2006-9-10
状态 离线
发表于 2021-2-13 10:08  资料  个人空间  短消息  加为好友 
感谢楼主分享

顶部
tclnokia
音乐狂热份子
Rank: 4


UID 102077
精华 0
积分 3304
帖子 293
音乐魅力 2340 点
现金 671 音乐币
阅读权限 50
注册 2007-1-6
状态 离线
发表于 2023-1-21 22:55  资料  个人空间  短消息  加为好友 
谢谢分享!!!!

顶部
 



当前时区 GMT+8, 现在时间是 2023-1-30 08:39
本论坛支付平台由支付宝提供
携手打造安全诚信的交易社区
Processed in 0.018004 second(s), 8 queries , Gzip enabled

清除 Cookies - 联系我们 - 至爱音乐论坛 - Archiver - WAP