标题: [华语] [BD]周杰伦 - 告白气球[MP4/97M]
  本主题被作者加入到个人文集中  
‘尛傑’ (肥旺…)
音乐掌门人
Rank: 14Rank: 14Rank: 14Rank: 14
独家资源


至爱音乐荣誉勋章   至爱音乐版主  
UID 59570
精华 11
积分 2391671992
帖子 2077
音乐魅力 244186257 点
现金 2147483647 音乐币
阅读权限 180
注册 2006-8-28
状态 在线
发表于 2016-10-29 14:56  资料  个人空间  短消息  加为好友  QQ
[BD]周杰伦 - 告白气球[MP4/97M]



QUOTE:
下载地址:
http://pan.baidu.com/s/1bz4Gea

提取码:
**** 本内容跟帖回复才可浏览 *****



QUOTE:
General
Format                         : MPEG-4
Format profile                 : Base Media
Codec ID                       : isom (isom/iso2/avc1/mp41)
File size                      : 97.1 MiB
Duration                       : 3 min 35 s
Overall bit rate               : 3 779 kb/s
Writing application            : Lavf55.33.100

Video
ID                             : 1
Format                         : AVC
Format/Info                    : Advanced Video Codec
Format profile                 : High@L4
Format settings, CABAC         : Yes
Format settings, ReFrames      : 2 frames
Codec ID                       : avc1
Codec ID/Info                  : Advanced Video Coding
Duration                       : 3 min 35 s
Bit rate                       : 3 648 kb/s
Width                          : 1 920 pixels
Height                         : 1 080 pixels
Display aspect ratio           : 16:9
Frame rate mode                : Constant
Frame rate                     : 24.000 FPS
Color space                    : YUV
Chroma subsampling             : 4:2:0
Bit depth                      : 8 bits
Scan type                      : Progressive
Bits/(Pixel*Frame)             : 0.073
Stream size                    : 93.8 MiB (97%)
Color range                    : Limited
Color primaries                : BT.709
Transfer characteristics       : BT.709
Matrix coefficients            : BT.709

Audio
ID                             : 2
Format                         : AAC
Format/Info                    : Advanced Audio Codec
Format profile                 : LC
Codec ID                       : 40
Duration                       : 3 min 35 s
Bit rate mode                  : Constant
Bit rate                       : 126 kb/s
Channel(s)                     : 2 channels
Channel positions              : Front: L R
Sampling rate                  : 44.1 kHz
Frame rate                     : 43.066 FPS (1024 spf)
Compression mode               : Lossy
Stream size                    : 3.23 MiB (3%)
Default                        : Yes
Alternate group                : 1


分享到:     分享到新浪微博 新浪微博    分享到QQ空间QQ空间    分享到腾讯微博腾讯微博



至爱音乐论坛声明:
◎本站音乐仅供试听,请下载后在24小时内删除,请支持你喜欢的歌手,购买正版CD。
◎本站音乐皆从网上搜集转载,版权归唱片公司和歌手所有,如侵犯您的权益,请通知我们,我们将及时删除。





顶部
feichang
音乐制作人
Rank: 6Rank: 6



UID 83912
精华 0
积分 7432
帖子 1121
音乐魅力 4491 点
现金 1820 音乐币
阅读权限 70
注册 2006-11-8
状态 离线
发表于 2016-10-29 18:44  资料  个人空间  短消息  加为好友 
听听看怎么样

顶部
鸡仔 (鸡仔)
音乐制作人
Rank: 6Rank: 6


UID 79717
精华 0
积分 4014
帖子 271
音乐魅力 2821 点
现金 922 音乐币
阅读权限 70
注册 2006-10-29
来自 广东江门
状态 离线
发表于 2016-11-4 23:57  资料  个人空间  短消息  加为好友 
非常感谢分享!!!





谈恋爱是令人烦恼的,但没有恋爱,人生是没意义的!
顶部
陶喆主义
荣誉音乐师
Rank: 10Rank: 10Rank: 10


荣誉勋章   至爱音乐荣誉勋章   至爱音乐荣誉会员  
UID 13500
精华 0
积分 8592
帖子 1638
音乐魅力 5529 点
现金 1425 音乐币
阅读权限 100
注册 2006-3-19
状态 离线
发表于 2016-11-30 09:29  资料  个人空间  短消息  加为好友 
THX

顶部
水中倒影
音乐热爱份子
Rank: 3Rank: 3



UID 128458
精华 0
积分 1003
帖子 130
音乐魅力 775 点
现金 98 音乐币
阅读权限 30
注册 2008-10-15
状态 离线
发表于 2016-12-4 17:21  资料  个人空间  短消息  加为好友  添加 水中倒影 为MSN好友 通过MSN和 水中倒影 交谈
谢谢啊

顶部
iversoncj
音乐新人
Rank: 1



UID 148319
精华 0
积分 214
帖子 39
音乐魅力 164 点
现金 11 音乐币
阅读权限 10
注册 2014-3-1
状态 离线
发表于 2017-2-6 21:54  资料  个人空间  短消息  加为好友 
太好了 要的就是这个啊

顶部
Denver15h
音乐狂热份子
Rank: 4



UID 120161
精华 0
积分 2203
帖子 62
音乐魅力 1675 点
现金 466 音乐币
阅读权限 50
注册 2007-12-1
状态 离线
发表于 2017-2-16 12:11  资料  个人空间  短消息  加为好友 
感谢分享

顶部
zhaoxiaoben
音乐热爱份子
Rank: 3Rank: 3



UID 105719
精华 0
积分 879
帖子 84
音乐魅力 629 点
现金 166 音乐币
阅读权限 30
注册 2007-2-1
状态 离线
发表于 2017-2-17 11:17  资料  个人空间  短消息  加为好友 
111111


本帖最近评分记录
‘尛傑’   2017-2-17 22:38  音乐魅力  -300   请珍惜你的ID!对于这样的回复内容我们 ...
‘尛傑’   2017-2-17 22:38  现金  -100   请珍惜你的ID!对于这样的回复内容我们 ...
顶部
wen0241 (Aaron)
音乐狂热份子
Rank: 4


UID 85215
精华 0
积分 3386
帖子 100
音乐魅力 2567 点
现金 719 音乐币
阅读权限 50
注册 2006-11-11
状态 离线
发表于 2017-8-5 00:43  资料  个人空间  短消息  加为好友  QQ
谢谢楼主分享
太赞了





我就喜欢一边听音乐,一边喝咖啡的感觉。
顶部
sunggio
音乐狂热份子
Rank: 4


UID 27269
精华 0
积分 3599
帖子 207
音乐魅力 2675 点
现金 717 音乐币
阅读权限 50
注册 2006-5-20
状态 离线
发表于 2017-10-28 15:10  资料  个人空间  短消息  加为好友 
谢谢楼主的分享了。辛苦!

顶部
Lil'Jin
音乐制作人
Rank: 6Rank: 6


UID 84898
精华 0
积分 4598
帖子 612
音乐魅力 3068 点
现金 918 音乐币
阅读权限 70
注册 2006-11-10
来自 上海
状态 离线
发表于 2017-10-31 22:46  资料  个人空间  短消息  加为好友 
thanks for sharing...

顶部
donghu
音乐狂热份子
Rank: 4



UID 35010
精华 0
积分 2954
帖子 31
音乐魅力 2251 点
现金 672 音乐币
阅读权限 50
注册 2006-6-12
状态 离线
发表于 2018-12-1 16:24  资料  个人空间  短消息  加为好友 
thank

顶部
音乐幽灵 (黄小仙)
音乐制作人
Rank: 6Rank: 6



UID 17472
精华 0
积分 4240
帖子 33
音乐魅力 3883 点
现金 324 音乐币
阅读权限 70
注册 2006-4-7
状态 离线
发表于 2018-12-21 09:10  资料  个人空间  短消息  加为好友  添加 音乐幽灵 为MSN好友 通过MSN和 音乐幽灵 交谈
非常非常感谢呀





我们一次又一次的飞走 是为了一次又一次的归来
顶部
sstopp
音乐狂热份子
Rank: 4



UID 60112
精华 0
积分 2930
帖子 33
音乐魅力 2181 点
现金 716 音乐币
阅读权限 50
注册 2006-8-29
状态 离线
发表于 2019-2-4 13:44  资料  个人空间  短消息  加为好友 
好听啊

顶部
 



当前时区 GMT+8, 现在时间是 2019-8-22 08:53
本论坛支付平台由支付宝提供
携手打造安全诚信的交易社区
Processed in 0.017651 second(s), 10 queries , Gzip enabled

清除 Cookies - 联系我们 - 至爱音乐论坛 - Archiver - WAP