标题: [华语] [BD]张信哲 - 还爱光年 世界巡回演唱会[MKV/8.6G]
  本主题被作者加入到个人文集中  
‘尛傑’ (肥旺…)
音乐掌门人
Rank: 14Rank: 14Rank: 14Rank: 14
独家资源


至爱音乐荣誉勋章   至爱音乐版主  
UID 59570
精华 11
积分 2391671992
帖子 2077
音乐魅力 244186257 点
现金 2147483647 音乐币
阅读权限 180
注册 2006-8-28
状态 离线
发表于 2016-12-15 23:07  资料  个人空间  短消息  加为好友  QQ
[BD]张信哲 - 还爱光年 世界巡回演唱会[MKV/8.6G]



QUOTE:
◎片  名 还爱光年世界巡回演唱会
◎年  代 2016
◎国  家 中国
◎类  别 演唱会
◎语  言 国语
◎发行日期 2016-11-30
◎豆瓣链接 https://music.douban.com/subject/26896171/
◎片  长 132分钟

◎简  介

  情歌最好时代 回忆无可取代
  20年演唱会超过千万人的感动见证
  第10次世界巡回的情感淬炼
  穿越时空 只为遇见 还爱光年 张信哲
  唯一蓝光BD珍藏 24首哲式经典
  2016年这一年,对于创造过无数畅销金曲的华语乐坛至尊情歌王子张信哲格外有意义。出道27年,今年是张信哲举办世界巡回演唱会的第20个年头,「还爱光年」演唱会则是他个人的第10轮巡回。20年的演唱会,在世界各地累积超过千万人的感动见证,一次又一次全新主题的巡回,张信哲参与更深更投入,对情歌演绎的功力更是到达炉火纯青的地步。
  「还爱光年」演唱会历时将近两年,唱遍世界21个城市共24场演出。「穿越时空 只为遇见 还爱光年 张信哲」世界巡回演唱会唯一蓝光BD,集结2016年上海、北京场,和今年在生日当天,首次在台北小巨蛋的场次,严选出最精采的24首哲式经典曲目,让歌迷以最高影像规格珍藏。
  「穿越时空 只为遇见 还爱光年 张信哲」世界巡回演唱会唯一蓝光BD,打破一般演唱会影音的剪辑逻辑,以「遗憾」、「水与情」、「微动画」、「华丽」、「关于爱的故事」、「Encore」六大主题串起整个演唱会内容。有舞台情境剧、有舞者上演与水互动撩拨的现代舞蹈、有穿越时空感觉的浩瀚大气LED投影、有结合歌曲气氛的插画动画短片,让歌迷不仅收藏张信哲的美声,也能再次如亲临现场般,感受视觉与听觉的同步震憾与感动。
  除此之外,张信哲今年在生日当天首次站上台北小巨蛋,歌迷给他意外惊喜替他庆生的桥段、Encore演唱新歌「苍苍」时,张爸爸在大屏幕中激动落泪令全场动容的画面,都收录在「穿越时空 只为遇见 还爱光年 张信哲」世界巡回演唱会唯一蓝光BD中。
  穿越时空 只为遇见 还爱光年 张信哲
  唯一蓝光BD特别收录:
  *「有一点动心」2016全新对唱组合 张信哲x徐佳莹 演唱会Live版
  *〔我是歌手4〕重新演绎苏芮经典爆红曲「亲爱的小孩」2016演唱会Live版
  *Bonus:独家精采幕后直击
  这一年除了展开「还爱光年」全新世界巡回演唱会外,对于张信哲来说,另一个重要的里程碑,就是参与「我是歌手4」节目再度让全华人听见他无可取代的独特美声,让他的歌唱事业再创另一波高峰。张信哲在节目中的选曲,再再都令人惊艳,其中带领台东桃源小学与布农族孩童远征翻唱苏芮的经典曲「亲爱的小孩」更是感动度破表,赚取现场和电视机前面观众无数眼泪。
  此外,张信哲在「我是歌手4」节目中,也交到不少新朋友。新生代创作才女拉拉徐佳莹就是其中一位。两人在节目长期征战中建立好交情,张信哲于是提出邀请,邀拉拉担任他台北小巨蛋场的特别嘉宾。拉拉当晚现身和张信哲合唱当年的经典对唱情歌「有一点动心」,为这首将近22年历史的经典,注入一股新世代的清新感。这一次蓝光BD也将张信哲在台北小巨蛋重现「亲爱的小孩」、和与拉拉合作的2016Live版「有一点动心」特别收录在其中。
  张信哲出道以来,总给大家一种台上专注唱歌,台下有点神秘的形象。歌迷熟悉他舞台上的样子,却鲜少可以目睹他私底下的个性。这次「穿越时空 只为遇见 还爱光年 张信哲」世界巡回演唱会唯一蓝光BD也Bonus直击张信哲在台后的「私生活」,让歌迷一窥偶像平常不为人知的一面。



QUOTE:
曲目:

PART.1【遗憾】
1. 最初
2. 爱就一个字
3. 最好的时光
PART.2 【水与情】
4. 不做你的爱人
5. 不要对他说
6. 难以抗拒你容颜
7. 爱如潮水
8. 爱你的宿命
PART.3【微动画】
9. 空出来的时间刚好拿来寂寞
10. 回来
11. 还爱还爱
12. 亲爱的小孩
PART.4【华丽】
13. 花季未了
14. 用情
15. 过火
16. 我是真的爱你
PART.5【关于爱的故事】
17. 爱转动
18. 做你的男人
19. 有一点动心
20. I Believe
21. 信仰
PART.6【Encore】
22. 白月光
23. 苍苍
24. 太想爱你



QUOTE:
下载地址:
http://pan.baidu.com/s/1boI2gAb

提取码:

**** 本内容跟帖回复才可浏览 *****



QUOTE:
General
Unique ID                      : 177326856079586919676608749898023246382 (0x8567E9034F9F49AF920B1556EB2B1A2E)
Format                         : Matroska
Format version                 : Version 4 / Version 2
File size                      : 8.67 GiB
Duration                       : 2 h 12 min
Overall bit rate mode          : Variable
Overall bit rate               : 9 387 kb/s
Encoded date                   : UTC 2016-12-12 02:50:22
Writing application            : mkvmerge v8.3.0 ('Over the Horizon') 64bit
Writing library                : libebml v1.3.1 + libmatroska v1.4.2

Video
ID                             : 1
Format                         : AVC
Format/Info                    : Advanced Video Codec
Format profile                 : High@L4.1
Format settings, CABAC         : Yes
Format settings, ReFrames      : 9 frames
Codec ID                       : V_MPEG4/ISO/AVC
Duration                       : 2 h 12 min
Bit rate                       : 8 000 kb/s
Width                          : 1 280 pixels
Height                         : 720 pixels
Display aspect ratio           : 16:9
Frame rate mode                : Constant
Frame rate                     : 29.970 (30000/1001) FPS
Color space                    : YUV
Chroma subsampling             : 4:2:0
Bit depth                      : 8 bits
Scan type                      : Progressive
Bits/(Pixel*Frame)             : 0.290
Stream size                    : 7.37 GiB (85%)
Title                          : MPEG-4 x264@High Profile L4.1, 30 /1.001 fps @ 8000 kbps
Writing library                : x264 core 148 r2744 b97ae06
Encoding settings              : cabac=1 / ref=9 / deblock=1:-3:-3 / analyse=0x3:0x133 / me=umh / subme=11 / psy=1 / psy_rd=1.00:0.00 / mixed_ref=1 / me_range=32 / chroma_me=1 / trellis=2 / 8x8dct=1 / cqm=0 / deadzone=21,11 / fast_pskip=0 / chroma_qp_offset=-2 / threads=12 / lookahead_threads=1 / sliced_threads=0 / nr=0 / decimate=0 / interlaced=0 / bluray_compat=0 / constrained_intra=0 / bframes=6 / b_pyramid=2 / b_adapt=2 / b_bias=0 / direct=3 / weightb=1 / open_gop=0 / weightp=2 / keyint=300 / keyint_min=29 / scenecut=40 / intra_refresh=0 / rc_lookahead=60 / rc=2pass / mbtree=1 / bitrate=8000 / ratetol=1.0 / qcomp=0.60 / qpmin=0 / qpmax=69 / qpstep=4 / cplxblur=20.0 / qblur=0.5 / vbv_maxrate=22000 / vbv_bufsize=22000 / nal_hrd=none / filler=0 / ip_ratio=1.40 / aq=1:0.60
Language                       : English
Default                        : Yes
Forced                         : No

Audio #1
ID                             : 2
Format                         : FLAC
Format/Info                    : Free Lossless Audio Codec
Codec ID                       : A_FLAC
Duration                       : 2 h 12 min
Bit rate mode                  : Variable
Bit rate                       : 745 kb/s
Channel(s)                     : 2 channels
Channel positions              : Front: L R
Sampling rate                  : 48.0 kHz
Frame rate                     : 11.719 FPS (4096 spf)
Bit depth                      : 16 bits
Stream size                    : 704 MiB (8%)
Title                          : Mandarin Flac 2.0 @ 745 kbps
Writing library                : libFLAC 1.2.1 (UTC 2007-09-17)
Language                       : Chinese
Default                        : Yes
Forced                         : No

Audio #2
ID                             : 3
Format                         : AC-3
Format/Info                    : Audio Coding 3
Mode extension                 : CM (complete main)
Format settings, Endianness    : Big
Codec ID                       : A_AC3
Duration                       : 2 h 12 min
Bit rate mode                  : Constant
Bit rate                       : 640 kb/s
Channel(s)                     : 6 channels
Channel positions              : Front: L C R, Side: L R, LFE
Sampling rate                  : 48.0 kHz
Frame rate                     : 31.250 FPS (1536 spf)
Bit depth                      : 16 bits
Compression mode               : Lossy
Stream size                    : 605 MiB (7%)
Title                          : Mandarin Dolby Digital Audio 5.1 @ 640 kbps
Language                       : Chinese
Default                        : No
Forced                         : No

Text #1
ID                             : 4
Format                         : PGS
Codec ID                       : S_HDMV/PGS
Codec ID/Info                  : Picture based subtitle format used on BDs/HD-DVDs
Duration                       : 2 h 8 min
Bit rate                       : 8 535 b/s
Count of elements              : 2114
Stream size                    : 7.87 MiB (0%)
Title                          : Cht/SUP 原盘繁体
Language                       : Chinese
Default                        : No
Forced                         : No

Text #2
ID                             : 5
Format                         : PGS
Codec ID                       : S_HDMV/PGS
Codec ID/Info                  : Picture based subtitle format used on BDs/HD-DVDs
Duration                       : 2 h 8 min
Bit rate                       : 7 526 b/s
Count of elements              : 2114
Stream size                    : 6.94 MiB (0%)
Title                          : Chs/SUP 原盘简体
Language                       : Chinese
Default                        : Yes
Forced                         : No

Menu
00:00:00.000                   : en:00:00:00.000
00:02:45.165                   : en:1. 最初
00:07:13.266                   : en:2. 爱就一个字
00:11:43.703                   : en:3. 最好的时光
00:16:44.904                   : en:00:16:44.904
00:17:13.132                   : en:00:17:13.132
00:19:47.720                   : en:4. 不做你的爱人
00:24:25.197                   : en:5. 不要对他说
00:30:00.132                   : en:6. 难以抗拒你容颜
00:34:32.070                   : en:7. 爱如潮水
00:39:05.510                   : en:8. 爱你的宿命
00:43:00.244                   : en:00:43:00.244
00:45:09.040                   : en:9. 空出来的时间刚好拿来寂寞
00:49:59.630                   : en:10. 回来
00:56:10.867                   : en:11. 还爱还爱
01:01:30.520                   : en:12. 亲爱的小孩
01:05:26.923                   : en:01:05:26.923
01:05:53.283                   : en:13. 花季未了
01:09:47.683                   : en:14. 用情
01:15:38.868                   : en:15. 过火
01:20:29.658                   : en:16. 我是真的爱你
01:25:30.625                   : en:17. 爱转动
01:30:03.732                   : en:18. 做你的男人
01:34:40.341                   : en:19. 有一点动心
01:38:36.244                   : en:20. I Believe
01:43:30.204                   : en:21. 信仰
01:47:43.157                   : en:01:47:43.157
01:48:55.863                   : en:22. 白月光
01:53:26.700                   : en:23. 苍苍
02:00:19.612                   : en:24. 太想爱你
02:06:28.114                   : en:02:06:28.114
02:10:36.996                   : en:02:10:36.996


分享到:     分享到新浪微博 新浪微博    分享到QQ空间QQ空间    分享到腾讯微博腾讯微博



至爱音乐论坛声明:
◎本站音乐仅供试听,请下载后在24小时内删除,请支持你喜欢的歌手,购买正版CD。
◎本站音乐皆从网上搜集转载,版权归唱片公司和歌手所有,如侵犯您的权益,请通知我们,我们将及时删除。





顶部
MICHAEL
音乐狂热份子
Rank: 4



UID 142500
精华 0
积分 2076
帖子 964
音乐魅力 1092 点
现金 20 音乐币
阅读权限 50
注册 2011-4-1
状态 离线
发表于 2016-12-16 21:29  资料  个人空间  短消息  加为好友 
回复 #1 ‘尛傑’ 的帖子


顶部
akono (TEN14的玫瑰)
音乐热爱份子
Rank: 3Rank: 3


UID 116141
精华 0
积分 1818
帖子 41
音乐魅力 1762 点
现金 15 音乐币
阅读权限 30
注册 2007-8-15
状态 离线
发表于 2016-12-17 20:05  资料  个人空间  短消息  加为好友 
谢谢呀,这资源好难找的。

顶部
lj19831024
音乐狂热份子
Rank: 4



UID 12795
精华 0
积分 2556
帖子 127
音乐魅力 1905 点
现金 524 音乐币
阅读权限 50
注册 2006-3-15
状态 离线
发表于 2016-12-19 17:05  资料  个人空间  短消息  加为好友 
THANK YO UVERY MUCH!

顶部
LX19841984
音乐狂热份子
Rank: 4



UID 15950
精华 0
积分 2898
帖子 29
音乐魅力 2213 点
现金 656 音乐币
阅读权限 50
注册 2006-4-1
状态 离线
发表于 2017-1-20 16:42  资料  个人空间  短消息  加为好友 
下来看看 谢谢

顶部
iohcsk
音乐热爱份子
Rank: 3Rank: 3



UID 124326
精华 0
积分 1597
帖子 31
音乐魅力 1268 点
现金 298 音乐币
阅读权限 30
注册 2008-4-15
状态 离线
发表于 2017-1-30 13:16  资料  个人空间  短消息  加为好友 
好久不见得论坛~

顶部
zhaoxiaoben
音乐热爱份子
Rank: 3Rank: 3



UID 105719
精华 0
积分 881
帖子 85
音乐魅力 630 点
现金 166 音乐币
阅读权限 30
注册 2007-2-1
状态 离线
发表于 2017-2-17 11:21  资料  个人空间  短消息  加为好友 
111111


本帖最近评分记录
‘尛傑’   2017-2-17 22:38  音乐魅力  -300   尊重发贴者的劳动 请写好你的回复
‘尛傑’   2017-2-17 22:38  现金  -100   尊重发贴者的劳动 请写好你的回复
顶部
Meow_steve
音乐新人
Rank: 1



UID 148805
精华 0
积分 245
帖子 55
音乐魅力 177 点
现金 13 音乐币
阅读权限 10
注册 2015-2-1
状态 离线
发表于 2017-2-23 15:00  资料  个人空间  短消息  加为好友 
太好了 终于有资源了

顶部
zqq (T-BAG)
音乐热爱份子
Rank: 3Rank: 3


UID 119190
精华 0
积分 1912
帖子 118
音乐魅力 1427 点
现金 367 音乐币
阅读权限 30
注册 2007-11-1
来自 湖北
状态 离线
发表于 2017-6-17 16:50  资料  个人空间  短消息  加为好友 
太厉害了!谢谢!





FUCK!!!!!!
顶部
msdc
音乐狂热份子
Rank: 4



UID 50734
精华 0
积分 2762
帖子 26
音乐魅力 2310 点
现金 426 音乐币
阅读权限 50
注册 2006-8-1
状态 离线
发表于 2017-11-17 16:20  资料  个人空间  短消息  加为好友 
qweqeqweqeqweqweqeqe

顶部
99sec
音乐热爱份子
Rank: 3Rank: 3



UID 134899
精华 0
积分 1508
帖子 104
音乐魅力 1006 点
现金 398 音乐币
阅读权限 30
注册 2009-10-1
状态 离线
发表于 2018-8-1 17:16  资料  个人空间  短消息  加为好友 
感谢分享~~!!!

顶部
ihjc
音乐热爱份子
Rank: 3Rank: 3



UID 132527
精华 0
积分 1268
帖子 28
音乐魅力 937 点
现金 303 音乐币
阅读权限 30
注册 2009-5-1
状态 离线
发表于 2018-8-13 10:13  资料  个人空间  短消息  加为好友  添加 ihjc 为MSN好友 通过MSN和 ihjc 交谈
回复 #1 ‘尛傑’ 的帖子

Thanks for sharing

顶部
lynx1234
音乐教授
Rank: 8Rank: 8



UID 17386
精华 0
积分 904864
帖子 46
音乐魅力 1721 点
现金 903097 音乐币
阅读权限 100
注册 2006-4-7
状态 离线
发表于 2018-8-28 22:35  资料  个人空间  短消息  加为好友 
资源还在吗?

顶部
crazyjoseph
音乐狂热份子
Rank: 4



UID 118569
精华 0
积分 2109
帖子 19
音乐魅力 1624 点
现金 466 音乐币
阅读权限 50
注册 2007-10-3
状态 离线
发表于 2019-4-29 11:17  资料  个人空间  短消息  加为好友  添加 crazyjoseph 为MSN好友 通过MSN和 crazyjoseph 交谈
谢谢 好喜欢阿哲

顶部
msdc
音乐狂热份子
Rank: 4



UID 50734
精华 0
积分 2762
帖子 26
音乐魅力 2310 点
现金 426 音乐币
阅读权限 50
注册 2006-8-1
状态 离线
发表于 2019-10-22 13:51  资料  个人空间  短消息  加为好友 
11111111111

11111111111111

顶部
 



当前时区 GMT+8, 现在时间是 2019-11-15 07:33
本论坛支付平台由支付宝提供
携手打造安全诚信的交易社区
Processed in 0.020068 second(s), 10 queries , Gzip enabled

清除 Cookies - 联系我们 - 至爱音乐论坛 - Archiver - WAP