标题: [华语] [BD]兄弟本色 G.U.T.S (MC Hotdog热狗 x 张震岳 x 顽童MJ116)- FLY OUT[MP4/64M]
  本主题由 ‘尛傑’ 于 2017-7-19 10:45 设置高亮    本主题被作者加入到个人文集中  
‘尛傑’ (肥旺…)
音乐掌门人
Rank: 14Rank: 14Rank: 14Rank: 14
独家资源


至爱音乐荣誉勋章   至爱音乐版主  
UID 59570
精华 11
积分 544188336
帖子 2072
音乐魅力 244186247 点
现金 300000006 音乐币
阅读权限 180
注册 2006-8-28
状态 在线
发表于 2017-6-21 14:24  资料  个人空间  短消息  加为好友  QQ
[BD]兄弟本色 G.U.T.S (MC Hotdog热狗 x 张震岳 x 顽童MJ116)- FLY OUT[MP4/64M]



QUOTE:
下载地址:
http://pan.baidu.com/s/1hsyzyvU


提取码:
**** 本内容跟帖回复才可浏览 *****



QUOTE:
General
Format                         : MPEG-4
Format profile                 : Base Media / Version 2
Codec ID                       : mp42 (isom/mp42)
File size                      : 64.2 MiB
Duration                       : 4 min 24 s
Overall bit rate mode          : Variable
Overall bit rate               : 2 039 kb/s
Encoded date                   : UTC 2016-11-15 22:32:33
Tagged date                    : UTC 2016-11-15 22:32:33
gsst                           : 0
gstd                           : 264312

Video
ID                             : 1
Format                         : AVC
Format/Info                    : Advanced Video Codec
Format profile                 : Main@L3.1
Format settings, CABAC         : Yes
Format settings, ReFrames      : 3 frames
Codec ID                       : avc1
Codec ID/Info                  : Advanced Video Coding
Duration                       : 4 min 24 s
Bit rate                       : 1 909 kb/s
Width                          : 1 280 pixels
Height                         : 720 pixels
Display aspect ratio           : 16:9
Frame rate mode                : Variable
Frame rate                     : 23.976 (24000/1001) FPS
Minimum frame rate             : 23.974 FPS
Maximum frame rate             : 23.981 FPS
Color space                    : YUV
Chroma subsampling             : 4:2:0
Bit depth                      : 8 bits
Scan type                      : Progressive
Bits/(Pixel*Frame)             : 0.086
Stream size                    : 60.1 MiB (94%)
Title                          : ISO Media file produced by Google Inc.
Encoded date                   : UTC 2016-11-15 22:32:33
Tagged date                    : UTC 2016-11-15 22:32:33
Color range                    : Limited
Color primaries                : BT.709
Transfer characteristics       : BT.709
Matrix coefficients            : BT.709

Audio
ID                             : 2
Format                         : AAC
Format/Info                    : Advanced Audio Codec
Format profile                 : LC
Codec ID                       : 40
Duration                       : 4 min 24 s
Bit rate mode                  : Variable
Bit rate                       : 126 kb/s
Channel(s)                     : 2 channels
Channel positions              : Front: L R
Sampling rate                  : 44.1 kHz
Frame rate                     : 43.066 FPS (1024 spf)
Compression mode               : Lossy
Stream size                    : 3.96 MiB (6%)
Title                          : ISO Media file produced by Google Inc.
Encoded date                   : UTC 2016-11-15 22:32:33
Tagged date                    : UTC 2016-11-15 22:32:33

[ 本帖最后由 ‘尛傑’ 于 2017-6-26 01:47 编辑 ]

分享到:     分享到新浪微博 新浪微博    分享到QQ空间QQ空间    分享到腾讯微博腾讯微博



至爱音乐论坛声明:
◎本站音乐仅供试听,请下载后在24小时内删除,请支持你喜欢的歌手,购买正版CD。
◎本站音乐皆从网上搜集转载,版权归唱片公司和歌手所有,如侵犯您的权益,请通知我们,我们将及时删除。





顶部
温柔雪人
音乐爱好者
Rank: 2



UID 140846
精华 0
积分 762
帖子 25
音乐魅力 439 点
现金 298 音乐币
阅读权限 30
注册 2011-1-1
状态 离线
发表于 2017-6-27 15:38  资料  个人空间  短消息  加为好友 
感谢分享

顶部
陶喆主义
荣誉音乐师
Rank: 10Rank: 10Rank: 10


荣誉勋章   至爱音乐荣誉勋章   至爱音乐荣誉会员  
UID 13500
精华 0
积分 8566
帖子 1625
音乐魅力 5516 点
现金 1425 音乐币
阅读权限 100
注册 2006-3-19
状态 离线
发表于 2017-6-28 17:02  资料  个人空间  短消息  加为好友 
谢谢分享

顶部
yintianbao123
音乐热爱份子
Rank: 3Rank: 3



UID 134106
精华 0
积分 1811
帖子 298
音乐魅力 1211 点
现金 302 音乐币
阅读权限 30
注册 2009-8-1
状态 离线
发表于 2017-7-1 17:57  资料  个人空间  短消息  加为好友 
谢谢分享 张震岳作品! 收下啦!

顶部
xoxiaoyuer (AKA BigRoy)
音乐制作人
Rank: 6Rank: 6
雪雪的胖胖


UID 144276
精华 0
积分 5821
帖子 319
音乐魅力 5479 点
现金 23 音乐币
阅读权限 70
注册 2011-10-3
来自 青州
状态 离线
发表于 2017-7-7 07:07  资料  个人空间  短消息  加为好友  QQ
这个必须收下 谢谢分享了

顶部
居里大人
荣誉音乐师
Rank: 10Rank: 10Rank: 10


荣誉勋章   至爱音乐荣誉勋章   至爱音乐荣誉会员  
UID 7370
精华 0
积分 4274
帖子 371
音乐魅力 2977 点
现金 926 音乐币
阅读权限 100
注册 2006-2-14
状态 离线
发表于 2017-8-3 22:09  资料  个人空间  短消息  加为好友 
嘻哈。。。越来越多人的嘻哈了

顶部
liwenjun
音乐爱好者
Rank: 2



UID 137971
精华 0
积分 466
帖子 14
音乐魅力 342 点
现金 110 音乐币
阅读权限 30
注册 2010-7-1
状态 离线
发表于 2017-8-9 20:17  资料  个人空间  短消息  加为好友 
不错啊

顶部
taotaoqq
音乐新人
Rank: 1



UID 143343
精华 0
积分 213
帖子 37
音乐魅力 166 点
现金 10 音乐币
阅读权限 10
注册 2011-7-1
状态 离线
发表于 2017-9-6 09:31  资料  个人空间  短消息  加为好友 
很好听的mtv

顶部
cococake
音乐狂热份子
Rank: 4



UID 56659
精华 0
积分 2660
帖子 37
音乐魅力 2308 点
现金 315 音乐币
阅读权限 50
注册 2006-8-19
状态 在线
发表于 2017-9-18 22:34  资料  个人空间  短消息  加为好友 
感谢分享

顶部
Lil'Jin
音乐制作人
Rank: 6Rank: 6


UID 84898
精华 0
积分 4596
帖子 611
音乐魅力 3067 点
现金 918 音乐币
阅读权限 70
注册 2006-11-10
来自 上海
状态 离线
发表于 2017-11-1 00:34  资料  个人空间  短消息  加为好友 
thanks for this...

顶部
鸡仔 (鸡仔)
音乐制作人
Rank: 6Rank: 6


UID 79717
精华 0
积分 4004
帖子 266
音乐魅力 2816 点
现金 922 音乐币
阅读权限 70
注册 2006-10-29
来自 广东江门
状态 离线
发表于 2017-12-20 22:59  资料  个人空间  短消息  加为好友 
谢谢分享





谈恋爱是令人烦恼的,但没有恋爱,人生是没意义的!
顶部
 



当前时区 GMT+8, 现在时间是 2018-4-27 01:13
本论坛支付平台由支付宝提供
携手打造安全诚信的交易社区
Processed in 0.027314 second(s), 9 queries , Gzip enabled

清除 Cookies - 联系我们 - 至爱音乐论坛 - Archiver - WAP