标题: [欧美] [BD]Ed Sheeran - Galway Girl[MP4/35M]
  本主题被作者加入到个人文集中  
‘尛傑’ (肥旺…)
音乐掌门人
Rank: 14Rank: 14Rank: 14Rank: 14
独家资源


至爱音乐荣誉勋章   至爱音乐版主  
UID 59570
精华 11
积分 2391671992
帖子 2077
音乐魅力 244186257 点
现金 2147483647 音乐币
阅读权限 180
注册 2006-8-28
状态 离线
发表于 2017-8-14 15:16  资料  个人空间  短消息  加为好友  QQ
[BD]Ed Sheeran - Galway Girl[MP4/35M]



QUOTE:
下载地址:
http://pan.baidu.com/s/1qYySppM

提取码:

**** 本内容跟帖回复才可浏览 *****



QUOTE:
General
Format                         : MPEG-4
Format profile                 : Base Media / Version 2
Codec ID                       : mp42 (isom/mp42)
File size                      : 35.7 MiB
Duration                       : 3 min 19 s
Overall bit rate mode          : Variable
Overall bit rate               : 1 501 kb/s
Encoded date                   : UTC 2017-07-10 23:37:53
Tagged date                    : UTC 2017-07-10 23:37:53
gsst                           : 0
gstd                           : 199389

Video
ID                             : 1
Format                         : AVC
Format/Info                    : Advanced Video Codec
Format profile                 : Main@L3.1
Format settings, CABAC         : Yes
Format settings, ReFrames      : 3 frames
Codec ID                       : avc1
Codec ID/Info                  : Advanced Video Coding
Duration                       : 3 min 19 s
Bit rate                       : 1 371 kb/s
Width                          : 1 280 pixels
Height                         : 720 pixels
Display aspect ratio           : 16:9
Frame rate mode                : Variable
Frame rate                     : 23.976 (24000/1001) FPS
Minimum frame rate             : 23.974 FPS
Maximum frame rate             : 23.981 FPS
Color space                    : YUV
Chroma subsampling             : 4:2:0
Bit depth                      : 8 bits
Scan type                      : Progressive
Bits/(Pixel*Frame)             : 0.062
Stream size                    : 32.6 MiB (91%)
Title                          : ISO Media file produced by Google Inc.
Encoded date                   : UTC 2017-07-10 23:37:53
Tagged date                    : UTC 2017-07-10 23:37:53
Color range                    : Limited
Color primaries                : BT.709
Transfer characteristics       : BT.709
Matrix coefficients            : BT.709

Audio
ID                             : 2
Format                         : AAC
Format/Info                    : Advanced Audio Codec
Format profile                 : LC
Codec ID                       : 40
Duration                       : 3 min 19 s
Bit rate mode                  : Variable
Bit rate                       : 126 kb/s
Channel(s)                     : 2 channels
Channel positions              : Front: L R
Sampling rate                  : 44.1 kHz
Frame rate                     : 43.066 FPS (1024 spf)
Compression mode               : Lossy
Stream size                    : 2.98 MiB (8%)
Title                          : ISO Media file produced by Google Inc.
Encoded date                   : UTC 2017-07-10 23:37:53
Tagged date                    : UTC 2017-07-10 23:37:53


分享到:     分享到新浪微博 新浪微博    分享到QQ空间QQ空间    分享到腾讯微博腾讯微博



至爱音乐论坛声明:
◎本站音乐仅供试听,请下载后在24小时内删除,请支持你喜欢的歌手,购买正版CD。
◎本站音乐皆从网上搜集转载,版权归唱片公司和歌手所有,如侵犯您的权益,请通知我们,我们将及时删除。





顶部
陶喆主义
荣誉音乐师
Rank: 10Rank: 10Rank: 10


荣誉勋章   至爱音乐荣誉勋章   至爱音乐荣誉会员  
UID 13500
精华 0
积分 8576
帖子 1630
音乐魅力 5521 点
现金 1425 音乐币
阅读权限 100
注册 2006-3-19
状态 离线
发表于 2017-8-17 22:59  资料  个人空间  短消息  加为好友 
谢谢分享

顶部
fago
音乐狂热份子
Rank: 4


UID 109936
精华 0
积分 2524
帖子 113
音乐魅力 2246 点
现金 165 音乐币
阅读权限 50
注册 2007-5-1
状态 离线
发表于 2017-9-2 22:09  资料  个人空间  短消息  加为好友 
整张专辑第二爱的歌,另外一首什么时候有MV啊

顶部
xoxiaoyuer (AKA BigRoy)
音乐制作人
Rank: 6Rank: 6
雪雪的胖胖


UID 144276
精华 0
积分 5821
帖子 319
音乐魅力 5479 点
现金 23 音乐币
阅读权限 70
注册 2011-10-3
来自 青州
状态 离线
发表于 2017-9-5 00:06  资料  个人空间  短消息  加为好友  QQ
黄老板的mv都收了 谢谢!!!

顶部
dwellinmusic
音乐爱好者
Rank: 2


UID 138984
精华 0
积分 619
帖子 41
音乐魅力 368 点
现金 210 音乐币
阅读权限 30
注册 2010-9-1
状态 离线
发表于 2017-12-2 12:43  资料  个人空间  短消息  加为好友 
Galway Girl是这张专辑里旋律欢快的歌,配乐里还有民族乐器。喜欢!

顶部
s663
音乐制作人
Rank: 6Rank: 6


UID 11767
精华 0
积分 4141
帖子 317
音乐魅力 2890 点
现金 934 音乐币
阅读权限 70
注册 2006-3-11
状态 离线
发表于 2017-12-30 11:03  资料  个人空间  短消息  加为好友 
重温爱尔兰的留学时光





顶部
Lil'Jin
音乐制作人
Rank: 6Rank: 6


UID 84898
精华 0
积分 4598
帖子 612
音乐魅力 3068 点
现金 918 音乐币
阅读权限 70
注册 2006-11-10
来自 上海
状态 离线
发表于 2018-1-22 00:16  资料  个人空间  短消息  加为好友 
thanks for this one...

顶部
 



当前时区 GMT+8, 现在时间是 2018-11-17 02:32
本论坛支付平台由支付宝提供
携手打造安全诚信的交易社区
Processed in 0.038165 second(s), 9 queries , Gzip enabled

清除 Cookies - 联系我们 - 至爱音乐论坛 - Archiver - WAP