‘尛傑’ (肥旺…)
音乐掌门人
Rank: 14Rank: 14Rank: 14Rank: 14
独家资源


至爱音乐荣誉勋章   至爱音乐版主  
UID 59570
精华 11
积分 2391671992
帖子 2077
音乐魅力 244186257 点
现金 2147483647 音乐币
阅读权限 180
注册 2006-8-28
状态 离线
发表于 2018-9-18 01:08  资料  个人空间  短消息  加为好友  QQ
[BD]S.H.E - 十七音乐会[MP4/3.45G]



QUOTE:
女子天团S.H.E今天9月11日届满成军17周年,今晚在两厅院艺文广场举行“S.H.E十七周年”万人免费露天音乐会,Selina昨在面簿上载演唱会舞台现场图片,整个演唱会舞台设计大型成游乐场,充满童趣,舞台上方又正好挂着彩虹,让三姝喜出望外。

Selina任家萱写道“彩排前出現了彩虹!期待明天!”

Hebe田馥甄今早也在微博写:“‘身为一道彩虹,尽全力也要换你一段笑容,夠了。我爱你不必人懂’,晚上见!生日快乐!@嘉桦ella:超期待!”

长达两小时的免费演唱会,无论从舞台设计到表演曲目,也已经是正式卖票演唱会规格,S.H.E这次大手笔举行免费演唱会,就是为了回馈粉丝17年来的支持。



QUOTE:
下載地址:

https://pan.baidu.com/s/1Fk6arcTPHgXjEAu2Yp-Qzw

提取碼:

**** 本内容跟帖回复才可浏览 *****



QUOTE:
General
Format                         : MPEG-4
Format profile                 : Base Media
Codec ID                       : isom (isom/iso2/avc1/mp41)
File size                      : 3.46 GiB
Duration                       : 2 h 4 min
Overall bit rate               : 3 983 kb/s
Writing application            : Lavf57.71.100

Video
ID                             : 1
Format                         : AVC
Format/Info                    : Advanced Video Codec
Format profile                 : High@L4
Format settings, CABAC         : Yes
Format settings, ReFrames      : 4 frames
Codec ID                       : avc1
Codec ID/Info                  : Advanced Video Coding
Duration                       : 2 h 4 min
Bit rate                       : 3 844 kb/s
Width                          : 1 920 pixels
Height                         : 1 080 pixels
Display aspect ratio           : 16:9
Frame rate mode                : Constant
Frame rate                     : 25.000 FPS
Color space                    : YUV
Chroma subsampling             : 4:2:0
Bit depth                      : 8 bits
Scan type                      : Progressive
Bits/(Pixel*Frame)             : 0.074
Stream size                    : 3.34 GiB (97%)

Audio
ID                             : 2
Format                         : AAC
Format/Info                    : Advanced Audio Codec
Format profile                 : LC
Codec ID                       : 40
Duration                       : 2 h 4 min
Bit rate mode                  : Constant
Bit rate                       : 129 kb/s
Channel(s)                     : 2 channels
Channel positions              : Front: L R
Sampling rate                  : 44.1 kHz
Frame rate                     : 43.066 FPS (1024 spf)
Compression mode               : Lossy
Stream size                    : 115 MiB (3%)
Language                       : unk
Default                        : Yes
Alternate group                : 1


分享到:     分享到新浪微博 新浪微博    分享到QQ空间QQ空间    分享到腾讯微博腾讯微博



至爱音乐论坛声明:
◎本站音乐仅供试听,请下载后在24小时内删除,请支持你喜欢的歌手,购买正版CD。
◎本站音乐皆从网上搜集转载,版权归唱片公司和歌手所有,如侵犯您的权益,请通知我们,我们将及时删除。





顶部
bluelarry
音乐狂热份子
Rank: 4



UID 45410
精华 0
积分 3435
帖子 206
音乐魅力 2513 点
现金 716 音乐币
阅读权限 50
注册 2006-7-13
状态 离线
发表于 2018-9-18 17:37  资料  个人空间  短消息  加为好友 
谢谢分享!!!!

顶部
lj19831024
音乐狂热份子
Rank: 4



UID 12795
精华 0
积分 2550
帖子 124
音乐魅力 1902 点
现金 524 音乐币
阅读权限 50
注册 2006-3-15
状态 离线
发表于 2018-10-17 18:50  资料  个人空间  短消息  加为好友 
thank you very much!

顶部
wziang
音乐狂热份子
Rank: 4



UID 3203
精华 0
积分 3074
帖子 21
音乐魅力 2336 点
现金 717 音乐币
阅读权限 50
注册 2006-1-1
状态 离线
发表于 2018-11-5 13:12  资料  个人空间  短消息  加为好友  QQ
感谢分享~

顶部
eagle2371 (仪凤)
荣誉音乐师
Rank: 10Rank: 10Rank: 10


荣誉勋章   至爱音乐荣誉勋章   至爱音乐荣誉会员  
UID 16148
精华 0
积分 4503
帖子 278
音乐魅力 3170 点
现金 1055 音乐币
阅读权限 100
注册 2006-4-1
状态 离线
发表于 2018-11-7 14:43  资料  个人空间  短消息  加为好友 
好久没来论坛啦。发现还在更新,虽然慢了些,但还在……
支持!





顶部
荷露雪 (小超)
荣誉音乐师
Rank: 10Rank: 10Rank: 10


荣誉勋章   至爱音乐荣誉勋章   至爱音乐荣誉会员  
UID 28336
精华 0
积分 5559
帖子 539
音乐魅力 4809 点
现金 211 音乐币
阅读权限 100
注册 2006-5-23
来自 浙江
状态 离线
发表于 2018-11-8 11:02  资料  个人空间  短消息  加为好友 
谢谢分享!






We got a princess,it's you Chao!
顶部
 



当前时区 GMT+8, 现在时间是 2018-12-12 15:55
本论坛支付平台由支付宝提供
携手打造安全诚信的交易社区
Processed in 0.022843 second(s), 9 queries , Gzip enabled

清除 Cookies - 联系我们 - 至爱音乐论坛 - Archiver - WAP